DOWNLOAD

Captain America The First Avenger 2011 TS READNFO XViD v2 - IMAGiNE [NO RAR]

Movies Author: / 29-07-2011, 00:40

Sponsored High Speed Download Links

873 downloads at 1690 kb/s
Captain America The First Avenger 2011 TS READNFO XViD v2 - IMAGiNE [NO RAR]

Captain America The First Avenger 2011 TS READNFO XViD v2 - IMAGiNE [NO RAR]

IMDB: http://www.imdb.com/title/tt0458339
|Genres: Action Adventure Sci-Fi|
|Ripper ...........: IMAGiNE|
IMDB Rating.......: 7.9/10|Video Codec.......: XViD
|Release Date......: 26/07/11|
|Audio Codec.......: MP3|heatre Date......: 22/07/11|
Audio Bitrate.....: 128|Runtime...........: 1h 53mn|
Subtitles.........: ENG|Language..........: ENGLISH|
Resolution........: 720 x 320


Captain America The First Avenger 2011 TS READNFO XViD v2 - IMAGiNE [NO RAR]
DETAILS:

Video
ID : 0
Format : MPEG-4 Visual
Format profile : Advanced Simple@L5
Format settings, BVOP : 2
Format settings, QPel : No
Format settings, GMC : No warppoints
Format settings, Matrix : Default (MPEG)
Muxing mode : Packed bitstream
Codec ID : XVID
Codec ID/Hint : XviD
Duration : 1h 53mn
Bit rate : 1 581 Kbps
Width : 720 pixels
Height : 320 pixels
Display aspect ratio : 2.25:1
Frame rate : 29.970 fps
Color space : YUV
Chroma subsampling : 4:2:0
Bit depth : 8 bits
Scan type : Progressive
Compression mode : Lossy
Bits/(Pixel*Frame) : 0.229
Stream size : 1.26 GiB (92%)
Writing library : XviD 64

Audio
ID : 1
Format : MPEG Audio
Format version : Version 1
Format profile : Layer 3
Codec ID : 55
Codec ID/Hint : MP3
Duration : 1h 53mn
Bit rate mode : Constant
Bit rate : 128 Kbps
Channel(s) : 2 channels
Sampling rate : 44.1 KHz
Compression mode : Lossy
Stream size : 104 MiB (7%)
Alignment : Split accross interleaves
Interleave, duration : 33 ms (1.00 video frame)
Interleave, preload duration : 500 ms

SOURCES:

VIDEO:Erdna ...Thanks
AUDIO:Thanks m8ty

NOTES:

Ok seems there some unhappy users who wanted the erdna video with our line audio so,here you go
Video as been filtered nicely and not butchered to death like some.
Audio taken off our first release and resynced to this video ... had to remove 4secs of audio as there
was no video for it and also needed a 13 sec audio offset as this video is missing some of the intro.

Take ya point now and enjoy
Captain America The First Avenger 2011 TS READNFO XViD v2 - IMAGiNE [NO RAR]
Captain America The First Avenger 2011 TS READNFO XViD v2 - IMAGiNE [NO RAR]
Captain America The First Avenger 2011 TS READNFO XViD v2 - IMAGiNE [NO RAR]

Link-Are-Interchangable.It-Means-You-Can-Download-Any-Part-Form-Any-Server-(1-Part-FileSonic,1-Part-WUpload...)And-Later-Extract-It-No-Problem-At-All
Thanks-For-Download.Best-Wishes-For-You-^^!


(Recommended-Buy-PremiumFilesonic-for-Highest-Speed)


http://www.filesonic.com/file/1528664064/Captain America The First Avenger 2011 TS READNFO XViD v2 - IMAGiNE.part1.rar
http://www.filesonic.com/file/1528665214/Captain America The First Avenger 2011 TS READNFO XViD v2 - IMAGiNE.part2.rar
http://www.filesonic.com/file/1528665164/Captain America The First Avenger 2011 TS READNFO XViD v2 - IMAGiNE.part3.rar
http://www.filesonic.com/file/1528659634/Captain America The First Avenger 2011 TS READNFO XViD v2 - IMAGiNE.part4.rar

http://ul.to/5tv1sixs/Captain America The First Avenger 2011 TS READNFO XViD v2 - IMAGiNE.part1.rar
http://ul.to/fxl4t1ni/Captain America The First Avenger 2011 TS READNFO XViD v2 - IMAGiNE.part2.rar
http://ul.to/pox1p6g4/Captain America The First Avenger 2011 TS READNFO XViD v2 - IMAGiNE.part3.rar
http://ul.to/nrc72wwl/Captain America The First Avenger 2011 TS READNFO XViD v2 - IMAGiNE.part4.rar

http://uploading.com/files/bf73e3f1/Captain%2BAmerica%2BThe%2BFirst%2BAvenger%2B2011%2BTS%2BREADNFO%2BXViD%2Bv2%2B-%2BIMAGiNE.part1.rar/
http://uploading.com/files/mfmab7e4/Captain%2BAmerica%2BThe%2BFirst%2BAvenger%2B2011%2BTS%2BREADNFO%2BXViD%2Bv2%2B-%2BIMAGiNE.part2.rar/
http://uploading.com/files/f199a919/Captain%2BAmerica%2BThe%2BFirst%2BAvenger%2B2011%2BTS%2BREADNFO%2BXViD%2Bv2%2B-%2BIMAGiNE.part3.rar/
http://uploading.com/files/fd6c12d4/Captain%2BAmerica%2BThe%2BFirst%2BAvenger%2B2011%2BTS%2BREADNFO%2BXViD%2Bv2%2B-%2BIMAGiNE.part4.rar/

http://www.uploadstation.com/file/DHC2VNy/Captain_America_The_First_Avenger_2011_TS_READNFO_XViD_v2_-_IMAGiNE.part1.rar
http://www.uploadstation.com/file/bfJbsfR/Captain_America_The_First_Avenger_2011_TS_READNFO_XViD_v2_-_IMAGiNE.part2.rar
http://www.uploadstation.com/file/Z3ZAUse/Captain_America_The_First_Avenger_2011_TS_READNFO_XViD_v2_-_IMAGiNE.part3.rar
http://www.uploadstation.com/file/Zqw5uHp/Captain_America_The_First_Avenger_2011_TS_READNFO_XViD_v2_-_IMAGiNE.part4.rar
(Votes: 125)
alert Information
Members of Guests cannot leave comments.
We not store any file in server. The links are provided solely by this site's users.
If you have any doubts about legality of content or you have another suspicions, feel free to contact us at dmca[a]sharingcentre.net