DOWNLOAD

Transformers 3 Dark of the Moon 2011 TS - Cradle{NDS Movie}

Movies Author: / 6-07-2011, 20:03

Sponsored High Speed Download Links

873 downloads at 1690 kb/s
Transformers 3 Dark of the Moon 2011 TS - Cradle{NDS Movie}

Transformers 3 Dark of the Moon 2011 TS - Cradle

File size : 317 MiB
Duration : 2h 25mn
Overall bit rate : 304 Kbps
MPEG Video
2h 25mn
http://www.imdb.com/title/tt1399103/


Screen:
Transformers 3 Dark of the Moon 2011 TS - Cradle{NDS Movie}
Information:
Complete name : NDS Movie Transformers 3 Dark of the Moon 2011 TS - Cradle
Format : DPG
Format/Info : Nintendo DS
File size : 317 MiB
Duration : 2h 25mn
Overall bit rate : 304 Kbps

Video
Format : MPEG Video
Format version : Version 1
Format settings, BVOP : No
Format settings, Matrix : Default
Duration : 3s 417ms
Bit rate mode : Variable
Bit rate : 192 Kbps
Width : 256 pixels
Height : 192 pixels
Display aspect ratio : 4:3
Frame rate : 15.000 fps
Original frame rate : 23.976 fps
Color space : YUV
Bit depth : 8 bits
Scan type : Progressive
Compression mode : Lossy
Bits/(Pixel*Frame) : 0.260
Stream size : 200 MiB (63%)

Audio
Format : MPEG Audio
Format version : Version 1
Format profile : Layer 2
Duration : 2h 25mn
Bit rate mode : Constant
Bit rate : 112 Kbps
Channel(s) : 2 channels
Sampling rate : 32.0 KHz
Compression mode : Lossy
Stream size : 117 MiB (37%)

Release Date??[ 29 June 2011 (UK)
IMDB Rating???[ 6.9/10
Genre?????????[ Action | Adventure | Sci-Fi
LINK .........[ http://www.imdb.com/title/tt1399103/
Director......[ Michael Bay
Writers ......[ Ehren Kruger
Stars...... [ Shia LaBeouf, Rosie Huntington-Whiteley and Tyrese Gibson
Language......[ English
Subtitles.....[ none

Link-Are-Interchangable.It-Means-You-Can-Download-Any-Part-Form-Any-Server-(1-Part-Filesonic,1-Part-UploadStation...)And-Later-ExtractIt-No-Problem-At-All
Thanks-For-Download.Best-Wishes-For-You-^^!


DownloadLinks

FileSonic

http://www.filesonic.com/file/1381893674/NDS_Movie_Transformers_3_Dark_of_the_Moon_2011_TS_-_Cradle.rar

Oron

http://oron.com/t4ien4l0dfmg/NDS_Movie_Transformers_3_Dark_of_the_Moon_2011_TS_-_Cradle.rar.html

Uploaded.To

http://ul.to/btz0zl27/NDS%20Movie%20Transformers%203%20Dark%20of%20the%20Moon%202011%20TS%20-%20Cradle.rar

Uploading

http://uploading.com/files/88135f97/%257BNDS%2BMovie%257D%2BTransformers%2B3%2BDark%2Bof%2Bthe%2BMoon%2B2011%2BTS%2B-%2BCradle.rar/

Wupload

http://www.wupload.com/file/44205540/NDS_Movie_Transformers_3_Dark_of_the_Moon_2011_TS_-_Cradle.rar
(Votes: 99)
alert Information
Members of Guests cannot leave comments.
We not store any file in server. The links are provided solely by this site's users.
If you have any doubts about legality of content or you have another suspicions, feel free to contact us at dmca[a]sharingcentre.net